My Mad Fat Diary S03E01 HDTV x264-TLA

seeders: 9
leechers: 0
updated:
Added by Mulva1989 in TV
Torrent verified.

My Mad Fat Diary S03E01 HDTV x264-TLA (Size: 302.76 MiB (317461673 Bytes))

Description

My Mad Fat Diary S03E01 HDTV x264-TLA

June 1998. Rae Earl is boss. Drinking, dancing and dating the hottest guy in the North - Rae has life as a teenager nailed. Despite a disastrous university interview, Rae's future in Stamford is looking bright. However, change is on the horizon as the gang grows up. When Rae's attempts to maintain the status quo backfires, she faces one of her biggest challenges yet. Is Rae Earl ready to grow up?

Screens @ 
https://yuq.me/users/50/321/Q5fUrMz3XI.jpg 
https://yuq.me/users/50/321/vw3ICrKymn.jpg

Format : MPEG-4
Format profile : Base Media
Codec ID : isom
File size : 303 MiB
Duration : 46mn 21s
Overall bit rate mode : Variable
Overall bit rate : 913 Kbps

Video
ID : 1
Format : AVC
Format/Info : Advanced Video Codec
Format profile : [email protected]
Format settings, CABAC : Yes
Format settings, ReFrames : 5 frames
Codec ID : avc1
Codec ID/Info : Advanced Video Coding
Duration : 46mn 21s
Bit rate : 782 Kbps
Width : 720 pixels
Height : 404 pixels
Display aspect ratio : 16:9
Frame rate mode : Constant
Frame rate : 25.000 fps
Color space : YUV
Chroma subsampling : 4:2:0
Bit depth : 8 bits
Scan type : Progressive
Bits/(Pixel*Frame) : 0.108
Stream size : 259 MiB (86%)
Writing library : x264 core 146 r2538 121396c
Encoding settings : cabac=1 / ref=5 / deblock=1:0:0 / analyse=0x3:0x113 / me=umh / subme=8 / psy=1 / psy_rd=1.00:0.00 / mixed_ref=1 / me_range=16 / chroma_me=1 / trellis=1 / 8x8dct=1 / cqm=0 / deadzone=21,11 / fast_pskip=1 / chroma_qp_offset=-2 / threads=12 / lookahead_threads=2 / sliced_threads=0 / nr=0 / decimate=1 / interlaced=0 / bluray_compat=0 / constrained_intra=0 / bframes=3 / b_pyramid=2 / b_adapt=2 / b_bias=0 / direct=3 / weightb=1 / open_gop=0 / weightp=2 / keyint=250 / keyint_min=25 / scenecut=40 / intra_refresh=0 / rc_lookahead=50 / rc=crf / mbtree=1 / crf=19.0 / qcomp=0.60 / qpmin=0 / qpmax=69 / qpstep=4 / ip_ratio=1.40 / aq=1:1.00
Matrix coefficients : BT.709
Color range : Limited

Audio
ID : 2
Format : AAC
Format/Info : Advanced Audio Codec
Format profile : LC
Codec ID : 40
Duration : 46mn 21s
Bit rate mode : Variable
Bit rate : 125 Kbps
Maximum bit rate : 141 Kbps
Channel(s) : 2 channels
Channel positions : Front: L R
Sampling rate : 48.0 KHz
Compression mode : Lossy
Stream size : 41.4 MiB (14%)

Sharing Widget


Download torrent
302.76 MiB (317461673 Bytes)
seeders:9
leechers:0
My Mad Fat Diary S03E01 HDTV x264-TLA



To share this torrent use the code below and insert it into comments, status messages, forum posts or your signature.

Torrent: My Mad Fat Diary S03E01 HDTV x264-TLA

Trackers

tracker name
udp://tracker.coppersurfer.tk:6969/announce
udp://9.rarbg.me:2710/announce
udp://p4p.arenabg.ch:1337/announce
udp://tracker.leechers-paradise.org:6969/announce
udp://eddie4.nl:6969/announce
udp://thetracker.org:80/announce
udp://tracker.coppersurfer.tk:6969
udp://explodie.org:6969/announce
udp://tracker.aletorrenty.pl:2710/announce
udp://9.rarbg.to:2710/announce
udp://torrent.gresille.org:80/announce
udp://tracker.opentrackr.org:1337/announce
udp://tracker.piratepublic.com:1337/announce
udp://tracker.sktorrent.net:6969/announce
udp://zer0day.ch:1337/announce
??Torrent compatible trackers list

Locations

name
KickassTorrents
Torrent hash: 3CBCA3F797410F672C40C4931A1DC802192BFB83

All Comments

audio
0/10
video
0/10
please, leave only comments related to that torrent
Sign In

Report a bug Open chat
counter